Rapidgator.net
Download!Download Point responsive WP Theme for FREE!

[11GB] – Thor: Ragnarok (2017) HDRip WEB-DL 720p 1080p AC3 AVI MKV – EVO

004f9318 [11GB] - Thor: Ragnarok (2017) HDRip WEB-DL 720p 1080p AC3 AVI MKV - EVO
[11GB] – Thor: Ragnarok (2017) HDRip WEB-DL 720p 1080p AC3 AVI MKV

HDRip | AVI | 720×304 | XviD@1324 kb/s | English AC3@384 kb/s
Subs: English | 6 channels | 2 h 10 min | 1.57 GB
WEB-DL 720p | MKV | 1280×536 | AVC@3912 kb/s | English AC3@384 kb/s
Subs: English | 6 channels | 2 h 10 min | 4.00 GB
WEB-DL 1080p | MKV | 1920×800 | AVC@5150 kb/s | English AC3@384 kb/s
Subs: English | 6 channels | 2 h 10 min | 5.16 GB
Genre: Action, Adventure, Comedy

Imprisoned, the mighty Thor finds himself in a lethal gladiatorial contest against the Hulk, his former ally. Thor must fight for survival and race against time to prevent the all-powerful Hela from destroying his home and the Asgardian civilization.

IMDB: http://www.imdb.com/title/tt3501632/ – Top Rated Movies #216 | 2 wins & 10 nominations.

HDRip MediaInfo

General
Thor.Ragnarok.2017.HDRip.XviD.AC3-EVO.avi
Format : AVI
Format/Info : Audio Video Interleave
File size : 1.57 GiB
Duration : 2 h 10 min
Overall bit rate : 1 718 kb/s
Writing library : VirtualDub build 32593/release
Video
ID : 0
Format : MPEG-4 Visual
Format profile : Advanced Simple@L5
Format settings, BVOP : 2
Format settings, QPel : No
Format settings, GMC : No warppoints
Format settings, Matrix : Default (H.263)
Muxing mode : Packed bitstream
Codec ID : XVID
Codec ID/Hint : XviD
Duration : 2 h 10 min
Bit rate : 1 324 kb/s
Width : 720 pixels
Height : 304 pixels
Display aspect ratio : 2.35:1
Frame rate : 23.976 (24000/1001) FPS
Color space : YUV
Chroma subsampling : 4:2:0
Bit depth : 8 bits
Scan type : Progressive
Compression mode : Lossy
Bits/(Pixel*Frame) : 0.252
Stream size : 1.21 GiB (77%)
Writing library : XviD 66
Audio
ID : 1
Format : AC-3
Format/Info : Audio Coding 3
Mode extension : CM (complete main)
Format settings, Endianness : Big
Codec ID : 2000
Duration : 2 h 10 min
Bit rate mode : Constant
Bit rate : 384 kb/s
Channel(s) : 6 channels
Channel positions : Front: L C R, Side: L R, LFE
Sampling rate : 48.0 kHz
Frame rate : 31.250 FPS (1536 spf)
Bit depth : 16 bits
Compression mode : Lossy
Stream size : 359 MiB (22%)
Alignment : Aligned on interleaves
Interleave, duration : 42 ms (1.00 video frame)
Interleave, preload duration : 512 ms

 

WEB-DL 720p MediaInfo
General
Thor.Ragnarok.2017.720p.WEB-DL.H264.AC3-EVO.mkv
Format : Matroska
Format version : Version 4 / Version 2
File size : 4.00 GiB
Duration : 2 h 10 min
Overall bit rate : 4 383 kb/s
Movie name : EVO
Encoded date : UTC 2018-01-20 17:23:33
Writing application : mkvmerge v6.7.0 (‘Back to the Ground’) 64bit built on Jan 8 2014 15:10:52
Writing library : libebml v1.3.0 + libmatroska v1.4.1
Video
ID : 3
Format : AVC
Format/Info : Advanced Video Codec
Format profile : Main@L3.1
Format settings, CABAC : No
Format settings, ReFrames : 2 frames
Codec ID : V_MPEG4/ISO/AVC
Duration : 2 h 10 min
Bit rate : 3 912 kb/s
Width : 1 280 pixels
Height : 536 pixels
Display aspect ratio : 2.40:1
Frame rate mode : Constant
Frame rate : 24.000 FPS
Color space : YUV
Chroma subsampling : 4:2:0
Bit depth : 8 bits
Scan type : Progressive
Bits/(Pixel*Frame) : 0.238
Stream size : 3.57 GiB (89%)
Language : English
Default : Yes
Forced : No
Color range : Limited
Color primaries : BT.709
Transfer characteristics : BT.709
Matrix coefficients : BT.709
Audio
ID : 2
Format : AC-3
Format/Info : Audio Coding 3
Mode extension : CM (complete main)
Format settings, Endianness : Big
Codec ID : A_AC3
Duration : 2 h 10 min
Bit rate mode : Constant
Bit rate : 384 kb/s
Channel(s) : 6 channels
Channel positions : Front: L C R, Side: L R, LFE
Sampling rate : 48.0 kHz
Frame rate : 31.250 FPS (1536 spf)
Bit depth : 16 bits
Compression mode : Lossy
Stream size : 359 MiB (9%)
Language : English
Default : Yes
Forced : No
Text
ID : 1
Format : UTF-8
Codec ID : S_TEXT/UTF8
Codec ID/Info : UTF-8 Plain Text
Language : English
Default : Yes
Forced : No
Menu
00:00:00.000 : en:The Great Prophecy
00:06:20.000 : en:The Tragedy Of Loki Of Asgard
00:14:11.000 : en:A Worthy Inclusion
00:22:12.000 : en:The Goddess Of Death
00:26:39.000 : en:”Are You A Fighter, Or Are You Food?”
00:31:29.000 : en:Heiress Apparent
00:35:03.000 : en:The Grandmaster
00:42:49.000 : en:The Eternal Flame
00:48:30.000 : en:The Contest Of Champions
00:59:38.000 : en:The Resistance
01:07:58.000 : en:Hotheaded Fools
01:17:30.000 : en:The Revengers
01:27:25.000 : en:”The Revolution Has Begun”
01:36:08.000 : en:Ready For War
01:42:35.000 : en:”Asgard Is Not A Place”
01:49:20.000 : en:”What Were You The God Of Again?”
01:54:57.000 : en:Ragnarok
02:00:37.000 : en:End Credits

 

WEB-DL 1080p MediaInfo
General
Thor.Ragnarok.2017.1080p.WEB-DL.X264.AC3-EVO.mkv
Format : Matroska
Format version : Version 4 / Version 2
File size : 5.16 GiB
Duration : 2 h 10 min
Overall bit rate : 5 647 kb/s
Movie name : EVO
Encoded date : UTC 2018-01-20 21:23:10
Writing application : mkvmerge v6.7.0 (‘Back to the Ground’) 64bit built on Jan 8 2014 15:10:52
Writing library : libebml v1.3.0 + libmatroska v1.4.1
Video
ID : 1
Format : AVC
Format/Info : Advanced Video Codec
Format profile : High@L4.1
Format settings, CABAC : Yes
Format settings, ReFrames : 4 frames
Format settings, GOP : M=1, N=3
Codec ID : V_MPEG4/ISO/AVC
Duration : 2 h 10 min
Bit rate : 5 150 kb/s
Width : 1 920 pixels
Height : 800 pixels
Display aspect ratio : 2.40:1
Frame rate mode : Constant
Frame rate : 23.976 (24000/1001) FPS
Color space : YUV
Chroma subsampling : 4:2:0
Bit depth : 8 bits
Scan type : Progressive
Bits/(Pixel*Frame) : 0.140
Stream size : 4.70 GiB (91%)
Default : Yes
Forced : No
Color range : Limited
Color primaries : BT.709
Transfer characteristics : BT.709
Matrix coefficients : BT.709
Audio
ID : 2
Format : AC-3
Format/Info : Audio Coding 3
Mode extension : CM (complete main)
Format settings, Endianness : Big
Codec ID : A_AC3
Duration : 2 h 10 min
Bit rate mode : Constant
Bit rate : 384 kb/s
Channel(s) : 6 channels
Channel positions : Front: L C R, Side: L R, LFE
Sampling rate : 48.0 kHz
Frame rate : 31.250 FPS (1536 spf)
Bit depth : 16 bits
Compression mode : Lossy
Stream size : 359 MiB (7%)
Language : English
Default : Yes
Forced : No
Text
ID : 3
Format : UTF-8
Codec ID : S_TEXT/UTF8
Codec ID/Info : UTF-8 Plain Text
Language : English
Default : Yes
Forced : No
Menu
00:00:00.000 : en:The Great Prophecy
00:06:20.000 : en:The Tragedy Of Loki Of Asgard
00:14:11.000 : en:A Worthy Inclusion
00:22:12.000 : en:The Goddess Of Death
00:26:39.000 : en:”Are You A Fighter, Or Are You Food?”
00:31:29.000 : en:Heiress Apparent
00:35:03.000 : en:The Grandmaster
00:42:49.000 : en:The Eternal Flame
00:48:30.000 : en:The Contest Of Champions
00:59:38.000 : en:The Resistance
01:07:58.000 : en:Hotheaded Fools
01:17:30.000 : en:The Revengers
01:27:25.000 : en:”The Revolution Has Begun”
01:36:08.000 : en:Ready For War
01:42:35.000 : en:”Asgard Is Not A Place”
01:49:20.000 : en:”What Were You The God Of Again?”
01:54:57.000 : en:Ragnarok
02:00:37.000 : en:End Credits

HDRip Screenshots

004f9318 [11GB] - Thor: Ragnarok (2017) HDRip WEB-DL 720p 1080p AC3 AVI MKV - EVO

004f9318 [11GB] - Thor: Ragnarok (2017) HDRip WEB-DL 720p 1080p AC3 AVI MKV - EVO
004f9318 [11GB] - Thor: Ragnarok (2017) HDRip WEB-DL 720p 1080p AC3 AVI MKV - EVO
004f9318 [11GB] - Thor: Ragnarok (2017) HDRip WEB-DL 720p 1080p AC3 AVI MKV - EVO

WEB-DL 720p Screenshots

004f9318 [11GB] - Thor: Ragnarok (2017) HDRip WEB-DL 720p 1080p AC3 AVI MKV - EVO

004f9318 [11GB] - Thor: Ragnarok (2017) HDRip WEB-DL 720p 1080p AC3 AVI MKV - EVO

004f9318 [11GB] - Thor: Ragnarok (2017) HDRip WEB-DL 720p 1080p AC3 AVI MKV - EVO

004f9318 [11GB] - Thor: Ragnarok (2017) HDRip WEB-DL 720p 1080p AC3 AVI MKV - EVO

 WEB-DL 1080p Screenshots

004f9318 [11GB] - Thor: Ragnarok (2017) HDRip WEB-DL 720p 1080p AC3 AVI MKV - EVO

004f9318 [11GB] - Thor: Ragnarok (2017) HDRip WEB-DL 720p 1080p AC3 AVI MKV - EVO

004f9318 [11GB] - Thor: Ragnarok (2017) HDRip WEB-DL 720p 1080p AC3 AVI MKV - EVO

004f9318 [11GB] - Thor: Ragnarok (2017) HDRip WEB-DL 720p 1080p AC3 AVI MKV - EVO

DOWNLOAD LINKS

password: 99hddown.com

 

Powered by WP Review
Tags:, , , , , , , , , , , , , , , , , , , , , , , , , , , , , , , , , , , , , , , , , , , , , , , , , , , , , , , , , ,

Add a Comment

Your email address will not be published. Required fields are marked *

Please wait...

Subscribe to our newsletter

Want to be notified when our article is published? Enter your email address and name below to be the first to know.
Advertisment ad adsense adlogger