[15GB].Baby.Driver.2017.BluRay.1080p.DTS-HD.MA.5.1.x264-MT

00490ec5 [15GB].Baby.Driver.2017.BluRay.1080p.DTS-HD.MA.5.1.x264-MT

[15GB].Baby.Driver.2017.BluRay.1080p.DTS-HD.MA.5.1.x264-MT

BDRip | MKV | 720×302 | [email protected] kb/s | English [email protected] kb/s
Subs: English | 2 channels | 1 h 52 min | 770 MB
BRRip | AVI | 720×304 | [email protected] kb/s | English [email protected] kb/s | 6 channels | 1 h 52 min | 1.31 GB
BDRip 720p | MKV | 1280×536 | [email protected] kb/s | English [email protected] kb/s
Subs: English | 6 channels | 1 h 52 min | 5.46 GB
BDRip 1080p | MKV | 1920×808 | [email protected] kb/s | English [email protected] kb/s
Subs: English | 6 channels | 1 h 52 min | 7.94 GB
BDRip 1080p | MKV | 1920×804 | [email protected] Mb/s | English DTS-HD [email protected] kb/s
Subs: English, Chinese | 6 channels | 1 h 52 min | 10.2 GB
Genre: Action, Crime, Music

IMDB : http://www.imdb.com/title/tt3890160/ – 5 wins & 2 nominations.

loading...

After being coerced into working for a crime boss, a young getaway driver finds himself taking part in a heist doomed to fail.

 

[tabs][tab title=”BDRip MediaInfo”]

General

Baby.Driver.2017.BDRip.x264-SPARKSbaby.driver.2017.bdrip.x264-sparks.mkv
Format : Matroska
Format version : Version 4 / Version 2
File size : 770 MiB
Duration : 1 h 52 min
Overall bit rate : 956 kb/s
Encoded date : UTC 2017-09-25 22:07:16
Writing application : mkvmerge v11.0.0 (‘Alive’) 64bit
Writing library : libebml v1.3.4 + libmatroska v1.4.5Video
ID : 1
Format : AVC
Format/Info : Advanced Video Codec
Format profile : [email protected]
Format settings, CABAC : Yes
Format settings, ReFrames : 5 frames
Codec ID : V_MPEG4/ISO/AVC
Duration : 1 h 52 min
Bit rate : 834 kb/s
Width : 720 pixels
Height : 302 pixels
Display aspect ratio : 2.40:1
Frame rate mode : Constant
Frame rate : 23.976 (24000/1001) FPS
Color space : YUV
Chroma subsampling : 4:2:0
Bit depth : 8 bits
Scan type : Progressive
Bits/(Pixel*Frame) : 0.160
Stream size : 672 MiB (87%)
Writing library : x264 core 152 r2851 ba24899
Encoding settings : cabac=1 / ref=5 / deblock=1:0:0 / analyse=0x3:0x113 / me=hex / subme=8 / psy=1 / psy_rd=1.00:0.00 / mixed_ref=1 / me_range=16 / chroma_me=1 / trellis=2 / 8x8dct=1 / cqm=0 / deadzone=21,11 / fast_pskip=1 / chroma_qp_offset=-2 / threads=9 / lookahead_threads=1 / sliced_threads=0 / nr=0 / decimate=1 / interlaced=0 / bluray_compat=0 / constrained_intra=0 / bframes=3 / b_pyramid=2 / b_adapt=1 / b_bias=0 / direct=3 / weightb=1 / open_gop=0 / weightp=2 / keyint=250 / keyint_min=23 / scenecut=40 / intra_refresh=0 / rc_lookahead=50 / rc=crf / mbtree=1 / crf=19.0 / qcomp=0.60 / qpmin=0 / qpmax=69 / qpstep=4 / ip_ratio=1.40 / aq=1:1.00
Language : English
Default : Yes
Forced : No
Color range : Limited
Matrix coefficients : BT.709
Audio
ID : 2
Format : AAC
Format/Info : Advanced Audio Codec
Format profile : LC
Codec ID : A_AAC
Duration : 1 h 52 min
Bit rate : 119 kb/s
Channel(s) : 2 channels
Channel positions : Front: L R
Sampling rate : 48.0 kHz
Frame rate : 46.875 FPS (1024 spf)
Compression mode : Lossy
Delay relative to video : 9 ms
Stream size : 96.3 MiB (12%)
Language : English
Default : Yes
Forced : No
Text
ID : 3
Format : UTF-8
Codec ID : S_TEXT/UTF8
Codec ID/Info : UTF-8 Plain Text
Duration : 1 h 16 min
Bit rate : 1 b/s
Count of elements : 49
Stream size : 738 Bytes (0%)
Language : English
Default : Yes
Forced : Yes

[/tab] [tab title=”BRRip MediaInfo”]

General
Baby.Driver.2017.BRRip.XviD.AC3-EVOBaby.Driver.2017.BRRip.XviD.AC3-EVO.avi
Format : AVI
Format/Info : Audio Video Interleave
File size : 1.31 GiB
Duration : 1 h 52 min
Overall bit rate : 1 668 kb/s
Writing library : VirtualDub build 32593/releaseVideo
ID : 0
Format : MPEG-4 Visual
Format profile : Advanced [email protected]
Format settings, BVOP : 2
Format settings, QPel : No
Format settings, GMC : No warppoints
Format settings, Matrix : Default (H.263)
Muxing mode : Packed bitstream
Codec ID : XVID
Codec ID/Hint : XviD
Duration : 1 h 52 min
Bit rate : 1 275 kb/s
Width : 720 pixels
Height : 304 pixels
Display aspect ratio : 2.35:1
Frame rate : 23.976 (24000/1001) FPS
Color space : YUV
Chroma subsampling : 4:2:0
Bit depth : 8 bits
Scan type : Progressive
Compression mode : Lossy
Bits/(Pixel*Frame) : 0.243
Stream size : 1.00 GiB (76%)
Writing library : XviD 66
Audio
ID : 1
Format : AC-3
Format/Info : Audio Coding 3
Mode extension : CM (complete main)
Format settings, Endianness : Big
Codec ID : 2000
Duration : 1 h 52 min
Bit rate mode : Constant
Bit rate : 384 kb/s
Channel(s) : 6 channels
Channel positions : Front: L C R, Side: L R, LFE
Sampling rate : 48.0 kHz
Frame rate : 31.250 FPS (1536 spf)
Bit depth : 16 bits
Compression mode : Lossy
Stream size : 309 MiB (23%)
Alignment : Aligned on interleaves
Interleave, duration : 42 ms (1.00 video frame)
Interleave, preload duration : 512 ms

[/tab] [tab title=”BDRip 720p MediaInfo”]

General
Baby.Driver.2017.720p.BluRay.x264-SPARKSbaby.driver.2017.720p.bluray.x264-sparks.mkv
Format : Matroska
Format version : Version 4 / Version 2
File size : 5.46 GiB
Duration : 1 h 52 min
Overall bit rate : 6 942 kb/s
Encoded date : UTC 2017-09-25 21:50:14
Writing application : mkvmerge v11.0.0 (‘Alive’) 64bit
Writing library : libebml v1.3.4 + libmatroska v1.4.5Video
ID : 1
Format : AVC
Format/Info : Advanced Video Codec
Format profile : [email protected]
Format settings, CABAC : Yes
Format settings, ReFrames : 5 frames
Codec ID : V_MPEG4/ISO/AVC
Duration : 1 h 52 min
Bit rate : 5 434 kb/s
Width : 1 280 pixels
Height : 536 pixels
Display aspect ratio : 2.40:1
Frame rate mode : Constant
Frame rate : 23.976 (24000/1001) FPS
Color space : YUV
Chroma subsampling : 4:2:0
Bit depth : 8 bits
Scan type : Progressive
Bits/(Pixel*Frame) : 0.330
Stream size : 4.27 GiB (78%)
Writing library : x264 core 152 r2851 ba24899
Encoding settings : cabac=1 / ref=5 / deblock=1:0:0 / analyse=0x3:0x133 / me=umh / subme=7 / psy=1 / psy_rd=1.00:0.00 / mixed_ref=1 / me_range=16 / chroma_me=1 / trellis=1 / 8x8dct=1 / cqm=0 / deadzone=21,11 / fast_pskip=0 / chroma_qp_offset=-2 / threads=17 / lookahead_threads=2 / sliced_threads=0 / nr=0 / decimate=1 / interlaced=0 / bluray_compat=0 / constrained_intra=0 / bframes=3 / b_pyramid=2 / b_adapt=1 / b_bias=0 / direct=1 / weightb=1 / open_gop=0 / weightp=2 / keyint=250 / keyint_min=23 / scenecut=40 / intra_refresh=0 / rc_lookahead=40 / rc=2pass / mbtree=1 / bitrate=5434 / ratetol=1.0 / qcomp=0.60 / qpmin=0 / qpmax=69 / qpstep=4 / cplxblur=20.0 / qblur=0.5 / ip_ratio=1.40 / aq=1:1.00
Language : English
Default : Yes
Forced : No
Audio
ID : 2
Format : DTS
Format/Info : Digital Theater Systems
Mode : 16
Format settings, Endianness : Big
Codec ID : A_DTS
Duration : 1 h 52 min
Bit rate mode : Constant
Bit rate : 1 509 kb/s
Channel(s) : 6 channels
Channel positions : Front: L C R, Side: L R, LFE
Sampling rate : 48.0 kHz
Frame rate : 93.750 FPS (512 spf)
Bit depth : 24 bits
Compression mode : Lossy
Stream size : 1.19 GiB (22%)
Language : English
Default : Yes
Forced : No
Text
ID : 3
Format : UTF-8
Codec ID : S_TEXT/UTF8
Codec ID/Info : UTF-8 Plain Text
Duration : 1 h 16 min
Bit rate : 1 b/s
Count of elements : 49
Stream size : 738 Bytes (0%)
Language : English
Default : Yes
Forced : Yes

[/tab] [tab title=”BDRip 1080p MediaInfo”]

General
Baby.Driver.2017.1080p.BluRay.x264-SPARKSBaby.Driver.2017.1080p.BluRay.x264-SPARKS.mkv
Format : Matroska
Format version : Version 4 / Version 2
File size : 7.94 GiB
Duration : 1 h 52 min
Overall bit rate : 10.1 Mb/s
Encoded date : UTC 2017-09-25 22:28:14
Writing application : mkvmerge v8.3.0 (‘Over the Horizon’) 64bit
Writing library : libebml v1.3.1 + libmatroska v1.4.2Video
ID : 1
Format : AVC
Format/Info : Advanced Video Codec
Format profile : [email protected]
Format settings, CABAC : Yes
Format settings, ReFrames : 5 frames
Codec ID : V_MPEG4/ISO/AVC
Duration : 1 h 52 min
Bit rate : 8 586 kb/s
Width : 1 920 pixels
Height : 808 pixels
Display aspect ratio : 2.40:1
Frame rate mode : Constant
Frame rate : 23.976 FPS
Color space : YUV
Chroma subsampling : 4:2:0
Bit depth : 8 bits
Scan type : Progressive
Bits/(Pixel*Frame) : 0.231
Stream size : 6.75 GiB (85%)
Writing library : x264 core 152 r2851 ba24899
Encoding settings : cabac=1 / ref=5 / deblock=1:0:0 / analyse=0x3:0x133 / me=umh / subme=7 / psy=1 / psy_rd=1.00:0.00 / mixed_ref=1 / me_range=16 / chroma_me=1 / trellis=1 / 8x8dct=1 / cqm=0 / deadzone=21,11 / fast_pskip=0 / chroma_qp_offset=-2 / threads=25 / lookahead_threads=4 / sliced_threads=0 / nr=0 / decimate=1 / interlaced=0 / bluray_compat=0 / constrained_intra=0 / bframes=3 / b_pyramid=2 / b_adapt=1 / b_bias=0 / direct=1 / weightb=1 / open_gop=0 / weightp=2 / keyint=250 / keyint_min=23 / scenecut=40 / intra_refresh=0 / rc_lookahead=40 / rc=2pass / mbtree=1 / bitrate=8586 / ratetol=1.0 / qcomp=0.60 / qpmin=0 / qpmax=69 / qpstep=4 / cplxblur=20.0 / qblur=0.5 / ip_ratio=1.40 / aq=1:1.00
Language : English
Default : Yes
Forced : No
Audio
ID : 2
Format : DTS
Format/Info : Digital Theater Systems
Mode : 16
Format settings, Endianness : Big
Codec ID : A_DTS
Duration : 1 h 52 min
Bit rate mode : Constant
Bit rate : 1 509 kb/s
Channel(s) : 6 channels
Channel positions : Front: L C R, Side: L R, LFE
Sampling rate : 48.0 kHz
Frame rate : 93.750 FPS (512 spf)
Bit depth : 24 bits
Compression mode : Lossy
Stream size : 1.19 GiB (15%)
Language : English
Default : Yes
Forced : No
Text
ID : 3
Format : UTF-8
Codec ID : S_TEXT/UTF8
Codec ID/Info : UTF-8 Plain Text
Duration : 1 h 16 min
Bit rate : 1 b/s
Count of elements : 49
Stream size : 737 Bytes (0%)
Title : English-Forced
Language : English
Default : Yes
Forced : Yes
Menu
00:00:00.000 : en:00:00:00.000
00:09:11.050 : en:00:09:11.050
00:13:30.476 : en:00:13:30.476
00:20:58.174 : en:00:20:58.174
00:25:17.599 : en:00:25:17.599
00:33:07.903 : en:00:33:07.903
00:43:43.246 : en:00:43:43.246
00:48:15.643 : en:00:48:15.643
00:53:39.550 : en:00:53:39.550
00:58:51.903 : en:00:58:51.903
01:05:23.545 : en:01:05:23.545
01:11:34.081 : en:01:11:34.081
01:19:17.002 : en:01:19:17.002
01:30:30.675 : en:01:30:30.675
01:38:04.170 : en:01:38:04.170
01:43:30.413 : en:01:43:30.413

[/tab] [tab title=”BDRip 1080p (DTS MA) MediaInfo”]

General
Baby.Driver.2017.BluRay.1080p.DTS-HD.MA.5.1.×264-MT.mkv
Format : Matroska
Format version : Version 4 / Version 2
File size : 10.2 GiB
Duration : 1 h 52 min
Overall bit rate : 12.9 Mb/s
Encoded date : UTC 2017-09-27 02:01:20
Writing application : mkvmerge v14.0.0 (‘Flow’) 64bit
Writing library : libebml v1.3.4 + libmatroska v1.4.5Video
ID : 1
Format : AVC
Format/Info : Advanced Video Codec
Format profile : [email protected]
Format settings, CABAC : Yes
Format settings, ReFrames : 5 frames
Codec ID : V_MPEG4/ISO/AVC
Duration : 1 h 52 min
Bit rate : 10.5 Mb/s
Width : 1 920 pixels
Height : 804 pixels
Display aspect ratio : 2.40:1
Frame rate mode : Constant
Frame rate : 23.976 (24000/1001) FPS
Color space : YUV
Chroma subsampling : 4:2:0
Bit depth : 8 bits
Scan type : Progressive
Bits/(Pixel*Frame) : 0.284
Stream size : 8.26 GiB (81%)
Writing library : x264 core 148 r2597 e86f3a1
Encoding settings : cabac=1 / ref=5 / deblock=1:0:0 / analyse=0x3:0x113 / me=umh / subme=10 / psy=1 / psy_rd=1.05:0.10 / mixed_ref=1 / me_range=48 / chroma_me=1 / trellis=2 / 8x8dct=1 / cqm=0 / deadzone=21,11 / fast_pskip=0 / chroma_qp_offset=-2 / threads=12 / lookahead_threads=1 / sliced_threads=0 / nr=0 / decimate=1 / interlaced=0 / bluray_compat=0 / constrained_intra=0 / bframes=6 / b_pyramid=2 / b_adapt=2 / b_bias=0 / direct=3 / weightb=1 / open_gop=0 / weightp=2 / keyint=250 / keyint_min=23 / scenecut=40 / intra_refresh=0 / rc=2pass / mbtree=0 / bitrate=10500 / ratetol=2.0 / qcomp=0.70 / qpmin=0 / qpmax=69 / qpstep=4 / cplxblur=20.0 / qblur=0.5 / ip_ratio=1.40 / pb_ratio=1.30 / aq=2:1.00
Default : Yes
Forced : No
Audio
ID : 2
Format : DTS
Format/Info : Digital Theater Systems
Format profile : MA / Core
Mode : 16
Format settings, Endianness : Big
Codec ID : A_DTS
Duration : 1 h 52 min
Bit rate mode : Variable / Constant
Bit rate : 2 352 kb/s / 1 509 kb/s
Channel(s) : 6 channels
Channel positions : Front: L C R, Side: L R, LFE
Sampling rate : 48.0 kHz
Frame rate : 93.750 FPS (512 spf)
Bit depth : 16 bits
Compression mode : Lossless / Lossy
Stream size : 1.85 GiB (18%)
Language : English
Default : Yes
Forced : No
Text #1
ID : 3
Format : PGS
Muxing mode : zlib
Codec ID : S_HDMV/PGS
Codec ID/Info : Picture based subtitle format used on BDs/HD-DVDs
Duration : 1 h 51 min
Bit rate : 64.0 kb/s
Count of elements : 4334
Stream size : 51.2 MiB (0%)
Language : English
Default : Yes
Forced : No
Text #2
ID : 4
Format : PGS
Muxing mode : zlib
Codec ID : S_HDMV/PGS
Codec ID/Info : Picture based subtitle format used on BDs/HD-DVDs
Duration : 1 h 51 min
Bit rate : 28.8 kb/s
Count of elements : 2726
Stream size : 23.0 MiB (0%)
Language : Chinese
Default : No
Forced : No
Text #3
ID : 5
Format : PGS
Muxing mode : zlib
Codec ID : S_HDMV/PGS
Codec ID/Info : Picture based subtitle format used on BDs/HD-DVDs
Duration : 1 h 51 min
Bit rate : 28.3 kb/s
Count of elements : 2759
Stream size : 22.6 MiB (0%)
Language : Chinese
Default : No
Forced : No
Text #4
ID : 6
Format : PGS
Muxing mode : zlib
Codec ID : S_HDMV/PGS
Codec ID/Info : Picture based subtitle format used on BDs/HD-DVDs
Duration : 1 h 51 min
Bit rate : 29.2 kb/s
Count of elements : 2772
Stream size : 23.3 MiB (0%)
Language : Chinese
Default : No
Forced : No
 [/tab] [tab title=”Screenshots”]

 BDRip Screenshots

00490ec5 [15GB].Baby.Driver.2017.BluRay.1080p.DTS-HD.MA.5.1.x264-MT

 

00490ec5 [15GB].Baby.Driver.2017.BluRay.1080p.DTS-HD.MA.5.1.x264-MT

 

00490ec5 [15GB].Baby.Driver.2017.BluRay.1080p.DTS-HD.MA.5.1.x264-MT

BRRip Screenshots

 00490ec5 [15GB].Baby.Driver.2017.BluRay.1080p.DTS-HD.MA.5.1.x264-MT

00490ec5 [15GB].Baby.Driver.2017.BluRay.1080p.DTS-HD.MA.5.1.x264-MT

00490ec5 [15GB].Baby.Driver.2017.BluRay.1080p.DTS-HD.MA.5.1.x264-MT

 BDRip 720p Screenshots

 00490ec5 [15GB].Baby.Driver.2017.BluRay.1080p.DTS-HD.MA.5.1.x264-MT

00490ec5 [15GB].Baby.Driver.2017.BluRay.1080p.DTS-HD.MA.5.1.x264-MT

 

00490ec5 [15GB].Baby.Driver.2017.BluRay.1080p.DTS-HD.MA.5.1.x264-MT

BDRip 1080p Screenshots

00490ec5 [15GB].Baby.Driver.2017.BluRay.1080p.DTS-HD.MA.5.1.x264-MT

00490ec5 [15GB].Baby.Driver.2017.BluRay.1080p.DTS-HD.MA.5.1.x264-MT

00490ec5 [15GB].Baby.Driver.2017.BluRay.1080p.DTS-HD.MA.5.1.x264-MT

 BDRip 1080p (DTS MA) Screenshots

 00490ec5 [15GB].Baby.Driver.2017.BluRay.1080p.DTS-HD.MA.5.1.x264-MT

00490ec5 [15GB].Baby.Driver.2017.BluRay.1080p.DTS-HD.MA.5.1.x264-MT

00490ec5 [15GB].Baby.Driver.2017.BluRay.1080p.DTS-HD.MA.5.1.x264-MT

  [/tab] [/tabs]

DOWNLOAD LINKS:

[sociallocker id=”149″]

BDRip: http://safelinking.net/iBwGEzn

BRRip: http://safelinking.net/6X8c9Qu

BDRip 720p: http://safelinking.net/YTSH5ro

BDRip 1080p: http://safelinking.net/67l2dk3

BDRip 1080p (DTS MA): http://safelinking.net/YoIz6oU

[/sociallocker]

password: 99hddown.com

 

loading...