Rapidgator.net
Download!Download Point responsive WP Theme for FREE!

[2.88GB]-Mom.and.Dad.2017.1080p.WEB-DL.DD5.1.H264-FGT

Mom.and_.Dad_.2017.1080p.WEB-DL.DD5_.1.H264-FGT [2.88GB]-Mom.and.Dad.2017.1080p.WEB-DL.DD5.1.H264-FGT

IMDB: http://imdb.com/title/tt5462326/

A teenage girl and her little brother must survive a wild 24 hours during which a mass hysteria of unknown origins causes parents to turn violently on their own kids.

Media Info:

Video
ID                                       : 1
Format                                   : AVC
Format/Info                              : Advanced Video Codec
Format profile                           : High@L4
Format settings                          : CABAC / 5 Ref Frames
Format settings, CABAC                   : Yes
Format settings, ReFrames                : 5 frames
Codec ID                                 : V_MPEG4/ISO/AVC
Duration                                 : 1 h 23 min
Bit rate                                 : 4 561 kb/s
Width                                    : 1 920 pixels
Height                                   : 796 pixels
Display aspect ratio                     : 2.40:1
Frame rate mode                          : Constant
Frame rate                               : 23.976 (23976/1000) FPS
Color space                              : YUV
Chroma subsampling                       : 4:2:0
Bit depth                                : 8 bits
Scan type                                : Progressive
Bits/(Pixel*Frame)                       : 0.124
Stream size                              : 2.65 GiB (92%)
Title                                    : Mom.and.Dad.2018.1080p.WEB-DL.DD5.1.H264-FGT
Language                                 : English
Default                                  : Yes
Forced                                   : No
Color range                              : Limited
Color primaries                          : BT.709
Transfer characteristics                 : BT.709
Matrix coefficients                      : BT.709

Audio
ID                                       : 2
Format                                   : AC-3
Format/Info                              : Audio Coding 3
Codec ID                                 : A_AC3
Duration                                 : 1 h 23 min
Bit rate mode                            : Constant
Bit rate                                 : 384 kb/s
Channel(s)                               : 6 channels
Channel positions                        : Front: L C R, Side: L R, LFE
Sampling rate                            : 48.0 kHz
Frame rate                               : 31.250 FPS (1536 SPF)
Bit depth                                : 16 bits
Compression mode                         : Lossy
Delay relative to video                  : -42 ms
Stream size                              : 229 MiB (8%)
Title                                    : Mom.and.Dad.2018.1080p.WEB-DL.DD5.1.H264-FGT
Language                                 : English
Service kind                             : Complete Main
Default                                  : Yes
Forced                                   : No

Screenshort

Mom.and_.Dad_.2017.1080p.WEB-DL.DD5_.1.H264-FGT [2.88GB]-Mom.and.Dad.2017.1080p.WEB-DL.DD5.1.H264-FGT

Mom.and_.Dad_.2017.1080p.WEB-DL.DD5_.1.H264-FGT [2.88GB]-Mom.and.Dad.2017.1080p.WEB-DL.DD5.1.H264-FGT

Mom.and_.Dad_.2017.1080p.WEB-DL.DD5_.1.H264-FGT [2.88GB]-Mom.and.Dad.2017.1080p.WEB-DL.DD5.1.H264-FGT

Mom.and_.Dad_.2017.1080p.WEB-DL.DD5_.1.H264-FGT [2.88GB]-Mom.and.Dad.2017.1080p.WEB-DL.DD5.1.H264-FGT

Mom.and_.Dad_.2017.1080p.WEB-DL.DD5_.1.H264-FGT [2.88GB]-Mom.and.Dad.2017.1080p.WEB-DL.DD5.1.H264-FGT

Mom.and_.Dad_.2017.1080p.WEB-DL.DD5_.1.H264-FGT [2.88GB]-Mom.and.Dad.2017.1080p.WEB-DL.DD5.1.H264-FGT

Mom.and_.Dad_.2017.1080p.WEB-DL.DD5_.1.H264-FGT [2.88GB]-Mom.and.Dad.2017.1080p.WEB-DL.DD5.1.H264-FGT

DOWNLOAD LINKS

password:99hddown.com

Powered by WP Review

Add a Comment

Your email address will not be published. Required fields are marked *

Please wait...

Subscribe to our newsletter

Want to be notified when our article is published? Enter your email address and name below to be the first to know.
Advertisment ad adsense adlogger