Rapidgator.net
Download!Download Point responsive WP Theme for FREE!

[Movie] CuriosityStream: The Health of Our Oceans 2017 1080p HDTV AAC

004ff884 [Movie] CuriosityStream: The Health of Our Oceans 2017 1080p HDTV AAC
CuriosityStream – The Health of Our Oceans (2017)

HDTV | 1920×1080 | .MKV/AVC @ 8698 Kbps | 15 min 22 s | 965 MiB
Audio: English AAC 160 kbps, 2 channels | Subs: English
Genre: Documentary

Renowned marine biologist Dr. Sylvia Earle reveals why the dual threats of ocean pollution and overfishing could have a devastating impact on mankind.

MediaInfo
General
Complete name : The.Health.Of.Our.Oceans.1080p.mp4
Format : MPEG-4
Format profile : Base Media
Codec ID : isom (isom)
File size : 965 MiB
Duration : 15 min 22 s
Overall bit rate mode : Variable
Overall bit rate : 8 772 kb/sVideo
ID : 1
Format : AVC
Format/Info : Advanced Video Codec
Format profile : High@L4.1
Format settings, CABAC : Yes
Format settings, ReFrames : 4 frames
Codec ID : avc1
Codec ID/Info : Advanced Video Coding
Duration : 15 min 22 s
Bit rate : 8 698 kb/s
Maximum bit rate : 27.9 Mb/s
Width : 1 920 pixels
Height : 1 080 pixels
Display aspect ratio : 16:9
Frame rate mode : Constant
Frame rate : 29.970 (30000/1001) FPS
Color space : YUV
Chroma subsampling : 4:2:0
Bit depth : 8 bits
Scan type : Progressive
Bits/(Pixel*Frame) : 0.140
Stream size : 947 MiB (98%)
Encoding settings : cabac=1 / ref=2 / deblock=1:0:0 / analyse=0x3:0x113 / me=hex / subme=4 / psy=1 / psy_rd=1.00:0.00 / mixed_ref=0 / me_range=16 / chroma_me=1 / trellis=1 / 8x8dct=1 / cqm=0 / deadzone=21,11 / fast_pskip=1 / chroma_qp_offset=0 / threads=6 / lookahead_threads=1 / sliced_threads=0 / nr=0 / decimate=1 / interlaced=0 / bluray_compat=0 / constrained_intra=0 / bframes=3 / b_pyramid=2 / b_adapt=1 / b_bias=0 / direct=1 / weightb=1 / open_gop=0 / weightp=1 / keyint=300 / keyint_min=30 / scenecut=40 / intra_refresh=0 / rc_lookahead=20 / rc=abr / mbtree=1 / bitrate=8698 / ratetol=1.0 / qcomp=0.60 / qpmin=0 / qpmax=69 / qpstep=4 / vbv_maxrate=62500 / vbv_bufsize=78125 / nal_hrd=none / ip_ratio=1.40 / aq=1:1.00
Encoded date : UTC 2018-01-26 02:32:03
Tagged date : UTC 2018-01-26 04:17:10
Color range : Limited
Color primaries : BT.709
Transfer characteristics : BT.709
Matrix coefficients : BT.709

 

Audio
ID : 2
Format : AAC
Format/Info : Advanced Audio Codec
Format profile : LC
Codec ID : 40
Duration : 15 min 22 s
Bit rate mode : Variable
Bit rate : 160 kb/s
Maximum bit rate : 246 kb/s
Channel(s) : 2 channels
Channel positions : Front: L R
Sampling rate : 44.1 kHz
Frame rate : 43.066 FPS (1024 spf)
Compression mode : Lossy
Stream size : 17.6 MiB (2%)
Language : English
Encoded date : UTC 2018-01-26 04:17:09
Tagged date : UTC 2018-01-26 04:17:10

 

Text
ID : 3
Format : Timed Text
Codec ID : tx3g
Duration : 15 min 3 s
Bit rate mode : Variable
Bit rate : 98 b/s
Stream size : 10.7 KiB (0%)
Forced : No
Encoded date : UTC 2018-01-26 04:17:10
Tagged date : UTC 2018-01-26 04:17:10

Screenshots:
004ff884 [Movie] CuriosityStream: The Health of Our Oceans 2017 1080p HDTV AAC

004ff884 [Movie] CuriosityStream: The Health of Our Oceans 2017 1080p HDTV AAC

004ff884 [Movie] CuriosityStream: The Health of Our Oceans 2017 1080p HDTV AAC

004ff884 [Movie] CuriosityStream: The Health of Our Oceans 2017 1080p HDTV AAC

DOWNLOAD LINKS
password: 99hddown.com

Add a Comment

Your email address will not be published. Required fields are marked *