[Movie] Machines.2016.1080p.AMZN.WEB-DL.DDP5.1.H.264-NTG [7GB]

004fb3f0 [Movie] Machines.2016.1080p.AMZN.WEB-DL.DDP5.1.H.264-NTG [7GB]
[Movie] Machines.2016.1080p.AMZN.WEB-DL.DDP5.1.H.264-NTG [7GB]
WEB-DL | MKV | 1920×1080 | English | H264 @ 14145 kbps | E-AC-3 @ 640 kbps | 1 h 8 min | 7.07 GiB
Subtitles: English
Genre: Documentary

This portrayal of the rhythm of life and work in a gigantic textile factory in Gujarat, India, moves through the corridors and bowels of the enormously disorienting structure—taking the viewer on a journey of dehumanizing physical labor and intense hardship.
Files
Machines.2016.1080p.AMZN.WEB-DL.DDP5.1.H.264-NTG.mkv (7.1 GB)
Mediainfo
General
Unique ID : 260151325404254604960210119482000923049 (0xC3B752A0D8755AA8C6F39C88538DD9A9)
Complete name : ./Machines.2016.1080p.AMZN.WEB-DL.DDP5.1.H.264-NTG.mkv
Format : Matroska
Format version : Version 4 / Version 2
File size : 7.07 GiB
Duration : 1 h 8 min
Overall bit rate mode : Variable
Overall bit rate : 14.8 Mb/s
Encoded date : UTC 2018-01-22 01:24:29
Writing application : mkvmerge v16.0.0 (‘Protest’) 64-bit
Writing library : libebml v1.3.5 + libmatroska v1.4.8Video
ID : 1
Format : AVC
Format/Info : Advanced Video Codec
Format profile : [email protected]
Format settings : CABAC / 4 Ref Frames
Format settings, CABAC : Yes
Format settings, RefFrames : 4 frames
Codec ID : V_MPEG4/ISO/AVC
Duration : 1 h 8 min
Bit rate mode : Variable
Bit rate : 14.1 Mb/s
Maximum bit rate : 15.0 Mb/s
Width : 1 920 pixels
Height : 1 080 pixels
Display aspect ratio : 16:9
Frame rate mode : Constant
Frame rate : 25.000 FPS
Color space : YUV
Chroma subsampling : 4:2:0
Bit depth : 8 bits
Scan type : Progressive
Bits/(Pixel*Frame) : 0.273
Stream size : 6.76 GiB (96%)
Default : Yes
Forced : No
Color range : Limited
Color primaries : BT.709
Transfer characteristics : BT.709
Matrix coefficients : BT.709Audio
ID : 2
Format : E-AC-3
Format/Info : Enhanced Audio Coding 3
Format settings, Endianness : Big
Codec ID : A_EAC3
Duration : 1 h 8 min
Bit rate mode : Constant
Bit rate : 640 kb/s
Channel(s) : 6 channels
Channel positions : Front: L C R, Side: L R, LFE
Sampling rate : 48.0 kHz
Frame rate : 187.500 FPS (256 SPF)
Compression mode : Lossy
Stream size : 313 MiB (4%)
Language : English
Service kind : Complete Main
Default : Yes
Forced : No
Text #1
ID : 3
Format : UTF-8
Codec ID : S_TEXT/UTF8
Codec ID/Info : UTF-8 Plain Text
Duration : 21 min 34 s
Bit rate : 10 b/s
Count of elements : 42
Stream size : 1.61 KiB (0%)
Language : English
Default : No
Forced : No

 

Text #2
ID : 4
Format : UTF-8
Codec ID : S_TEXT/UTF8
Codec ID/Info : UTF-8 Plain Text
Duration : 1 h 8 min
Bit rate : 5 b/s
Count of elements : 121
Stream size : 2.82 KiB (0%)
Title : SDH
Language : English
Default : No
Forced : No

loading...

Screenshort

004fb3f0 [Movie] Machines.2016.1080p.AMZN.WEB-DL.DDP5.1.H.264-NTG [7GB]

004fb3f0 [Movie] Machines.2016.1080p.AMZN.WEB-DL.DDP5.1.H.264-NTG [7GB]

004fb3f0 [Movie] Machines.2016.1080p.AMZN.WEB-DL.DDP5.1.H.264-NTG [7GB]

004fb3f0 [Movie] Machines.2016.1080p.AMZN.WEB-DL.DDP5.1.H.264-NTG [7GB]

004fb3f0 [Movie] Machines.2016.1080p.AMZN.WEB-DL.DDP5.1.H.264-NTG [7GB]

DOWNLOAD LINKS
rapidgator_net:
password: 99hddown.com
loading...