[Movie] Downsizing (2017) WEBRip AC3 MKV [4GB]

004e8da0 [Movie] Downsizing (2017) WEBRip AC3 MKV [4GB]
[Movie] Downsizing (2017) WEBRip AC3 MKV [4GB]
WEBRip | AVI / [email protected] kb/s | 720×304 | 2h 15mn | 1.38 GB
English: AC3, 192 kb/s (2 ch) | Subtitles: Korean (hardcoded)
WEBRip 720p | MKV / [email protected] kb/s | 1280×536 | 2h 15mn | 2.79 GB
English: AC3, 192 kb/s (2 ch) | Subtitles: Korean (hardcoded)
Genre: Comedy | Drama | Sci-Fi
 Nominated for 1 Golden Globe. Another 1 win & 5 nominations.

“Downsizing” follows a kindly occupational therapist who undergoes a new procedure to be shrunken to four inches tall so that he and his wife can help save the planet and afford a nice lifestyle at the same time.

 

MediaInfo WEBRip
General
Complete name : G:Downsizing.2017.HC.HDRip.XviD.AC3-EVODownsizing.2017.HC.HDRip.XviD.AC3-EVO.avi
Format : AVI
Format/Info : Audio Video Interleave
Format profile : OpenDML
Format settings : rec
File size : 1.38 GiB
Duration : 2 h 15 min
Overall bit rate : 1 456 kb/s
Writing application : AVI-Mux GUI 1.17.8.3, Feb 16 201019:42:50Video
ID : 0
Format : MPEG-4 Visual
Format profile : Advanced [email protected]
Format settings, BVOP : 2
Format settings, QPel : No
Format settings, GMC : No warppoints
Format settings, Matrix : Default (H.263)
Muxing mode : Packed bitstream
Codec ID : XVID
Codec ID/Hint : XviD
Duration : 2 h 15 min
Bit rate : 1 258 kb/s
Width : 720 pixels
Height : 304 pixels
Display aspect ratio : 2.35:1
Frame rate : 30.000 FPS
Color space : YUV
Chroma subsampling : 4:2:0
Bit depth : 8 bits
Scan type : Progressive
Compression mode : Lossy
Bits/(Pixel*Frame) : 0.192
Stream size : 1.19 GiB (86%)
Writing library : XviD 66

 

loading...

Audio
ID : 1
Format : AC-3
Format/Info : Audio Coding 3
Format settings, Endianness : Big
Codec ID : 2000
Duration : 2 h 15 min
Bit rate mode : Constant
Bit rate : 192 kb/s
Channel(s) : 2 channels
Channel positions : Front: L R
Sampling rate : 48.0 kHz
Frame rate : 31.250 FPS (1536 spf)
Bit depth : 16 bits
Compression mode : Lossy
Stream size : 186 MiB (13%)
Alignment : Aligned on interleaves
Interleave, duration : 64 ms (1.92 video frames)
Interleave, preload duratio : 192 ms
Title : T2_Audio – English
Service kind : Complete Main

 

MediaInfo WEBRip 720p
General
Unique ID : 171576887045929578802929503236689041927 (0x811481A6E181AB028F0D9BB5B5F51A07)
Complete name : G:Downsizing.2017.720p.HC.HDRip.X264.AC3-EVODownsizing.2017.720p.HC.HDRip.X264.AC3-EVO.mkv
Format : Matroska
Format version : Version 4 / Version 2
File size : 2.79 GiB
Duration : 2 h 15 min
Overall bit rate : 2 955 kb/s
Movie name : EVO
Encoded date : UTC 2018-01-25 21:08:19
Writing application : mkvmerge v6.7.0 (‘Back to the Ground’) 64bit built on Jan 8 2014 15:10:52
Writing library : libebml v1.3.0 + libmatroska v1.4.1Video
ID : 1
Format : AVC
Format/Info : Advanced Video Codec
Format profile : [email protected]
Format settings, CABAC : Yes
Format settings, ReFrames : 4 frames
Codec ID : V_MPEG4/ISO/AVC
Duration : 2 h 15 min
Bit rate : 2 788 kb/s
Width : 1 280 pixels
Height : 536 pixels
Display aspect ratio : 2.40:1
Frame rate mode : Constant
Frame rate : 30.000 FPS
Color space : YUV
Chroma subsampling : 4:2:0
Bit depth : 8 bits
Scan type : Progressive
Bits/(Pixel*Frame) : 0.135
Stream size : 2.56 GiB (92%)
Writing library : x264 core 142 r2479 dd79a61
Encoding settings : cabac=1 / ref=1 / deblock=1:0:0 / analyse=0x3:0x113 / me=hex / subme=2 / psy=1 / psy_rd=1.00:0.00 / mixed_ref=0 / me_range=16 / chroma_me=1 / trellis=0 / 8x8dct=1 / cqm=0 / deadzone=21,11 / fast_pskip=1 / chroma_qp_offset=0 / threads=12 / lookahead_threads=4 / sliced_threads=0 / nr=0 / decimate=1 / interlaced=0 / bluray_compat=0 / constrained_intra=0 / bframes=3 / b_pyramid=2 / b_adapt=1 / b_bias=0 / direct=1 / weightb=1 / open_gop=0 / weightp=1 / keyint=300 / keyint_min=30 / scenecut=40 / intra_refresh=0 / rc_lookahead=10 / rc=abr / mbtree=1 / bitrate=2788 / ratetol=1.0 / qcomp=0.60 / qpmin=0 / qpmax=69 / qpstep=4 / vbv_maxrate=62500 / vbv_bufsize=78125 / nal_hrd=none / filler=0 / ip_ratio=1.40 / aq=1:1.00
Default : Yes
Forced : No
Color range : Limited
Color primaries : BT.709
Transfer characteristics : BT.709
Matrix coefficients : BT.709

 

Audio
ID : 2
Format : AC-3
Format/Info : Audio Coding 3
Format settings, Endianness : Big
Codec ID : A_AC3
Duration : 2 h 15 min
Bit rate mode : Constant
Bit rate : 192 kb/s
Channel(s) : 2 channels
Channel positions : Front: L R
Sampling rate : 48.0 kHz
Frame rate : 31.250 FPS (1536 spf)
Bit depth : 16 bits
Compression mode : Lossy
Delay relative to video : 95 ms
Stream size : 186 MiB (6%)
Title : Stereo
Language : English
Service kind : Complete Main
Default : Yes
Forced : No

Screenshots WEBRip

004e8da0 [Movie] Downsizing (2017) WEBRip AC3 MKV [4GB]

004e8da0 [Movie] Downsizing (2017) WEBRip AC3 MKV [4GB]

004e8da0 [Movie] Downsizing (2017) WEBRip AC3 MKV [4GB]

 

Screenshots WEBRip 720p

004e8da0 [Movie] Downsizing (2017) WEBRip AC3 MKV [4GB]

004e8da0 [Movie] Downsizing (2017) WEBRip AC3 MKV [4GB]

004e8da0 [Movie] Downsizing (2017) WEBRip AC3 MKV [4GB]

DOWNLOAD LINKS

rapidgator_net: 

WEBRip + WEBRip 720p: http://safelinking.net/Kbi51ps

nitroflare_com: 

WEBRip + WEBRip 720p: http://safelinking.net/nxfo1dR

password: 99hddown.com

loading...

Powered by WP Review