Rapidgator.net
Download!Download Point responsive WP Theme for FREE!

[Movie] Marshall (2017) BDRip MKV H264 AC-3 [5GB]

004fb3c3 [Movie] Marshall (2017) BDRip MKV H264 AC-3 [5GB]
[Movie] Marshall (2017) BDRip MKV H264 AC-3 [5GB]
BDRip | MKV | 1920×1080 | English | H264 @ 5760 kbps | AC-3 @ 448 kbps | 1 h 58 min | 5.13 GiB
Subtitles: English
Genre: Biography, Drama

Thurgood Marshall, the first African-American Supreme Court Justice, battles through one of his career-defining cases.

Files
b67c9ad729484a6fbc1ce2f8eb75a714.mkv (5.1 GB)
Mediainfo
General
Complete name : ./b67c9ad729484a6fbc1ce2f8eb75a714.mkv
Format : Matroska
Format version : Version 4 / Version 2
File size : 5.13 GiB
Duration : 1 h 58 min
Overall bit rate : 6 194 kb/s
Encoded date : UTC 2018-01-16 23:30:48 / UTC 2018-01-14T16:43:46Z
Writing application : mkvmerge v18.0.0 (‘Apricity’) 64-bit
Writing library : libebml v1.3.5 + libmatroska v1.4.8 / Lavf57.7.2

 

Video
ID : 1
Format : AVC
Format/Info : Advanced Video Codec
Format profile : High@L4
Format settings : CABAC / 6 Ref Frames
Format settings, CABAC : Yes
Format settings, RefFrames : 6 frames
Codec ID : V_MPEG4/ISO/AVC
Duration : 1 h 58 min
Bit rate : 5 760 kb/s
Width : 1 920 pixels
Height : 1 080 pixels
Display aspect ratio : 16:9
Frame rate mode : Constant
Frame rate : 23.976 (24000/1001) FPS
Color space : YUV
Chroma subsampling : 4:2:0
Bit depth : 8 bits
Scan type : Progressive
Bits/(Pixel*Frame) : 0.116
Stream size : 4.65 GiB (91%)
Writing library : x264 core 148 r2643 5c65704
Encoding settings : cabac=1 / ref=6 / deblock=1:-3:-3 / analyse=0x3:0x133 / me=umh / subme=9 / psy=1 / psy_rd=1.10:0.25 / mixed_ref=1 / me_range=32 / chroma_me=1 / trellis=2 / 8x8dct=1 / cqm=0 / deadzone=6,6 / fast_pskip=1 / chroma_qp_offset=-4 / threads=12 / lookahead_threads=1 / sliced_threads=0 / nr=0 / decimate=1 / interlaced=0 / bluray_compat=0 / constrained_intra=0 / bframes=3 / b_pyramid=2 / b_adapt=2 / b_bias=0 / direct=3 / weightb=1 / open_gop=0 / weightp=2 / keyint=240 / keyint_min=24 / scenecut=40 / intra_refresh=0 / rc_lookahead=40 / rc=2pass / mbtree=1 / bitrate=5760 / ratetol=1.0 / qcomp=0.60 / qpmin=0 / qpmax=69 / qpstep=4 / cplxblur=20.0 / qblur=0.5 / vbv_maxrate=20000 / vbv_bufsize=25000 / nal_hrd=none / filler=0 / ip_ratio=1.40 / aq=1:1.00
Language : English
Default : Yes
Forced : No
Color range : Limited
Color primaries : BT.709
Transfer characteristics : BT.709
Matrix coefficients : BT.709
Statistics Tags Issue : mkvmerge v18.0.0 (‘Apricity’) 64-bit 2018-01-16 23:30:48 / mkvmerge v18.0.0 (‘Apricity’) 64-bit 2018-01-16 23:30:48 / UTC 2018-01-14T16:43:46Z
FromStats_BitRate : 5744506
FromStats_Duration : 01:58:30.312000000
FromStats_FrameCount : 170477
FromStats_StreamSize : 5105654587

 

Audio
ID : 2
Format : AC-3
Format/Info : Audio Coding 3
Format settings, Endianness : Big
Codec ID : A_AC3
Duration : 1 h 58 min
Bit rate mode : Constant
Bit rate : 448 kb/s
Channel(s) : 6 channels
Channel positions : Front: L C R, Side: L R, LFE
Sampling rate : 48.0 kHz
Frame rate : 31.250 FPS (1536 SPF)
Bit depth : 16 bits
Compression mode : Lossy
Delay relative to video : -5 ms
Stream size : 380 MiB (7%)
Title : Surround
Language : English
Service kind : Complete Main
Default : Yes
Forced : No
Statistics Tags Issue : mkvmerge v18.0.0 (‘Apricity’) 64-bit 2018-01-16 23:30:48 / mkvmerge v18.0.0 (‘Apricity’) 64-bit 2018-01-16 23:30:48 / UTC 2018-01-14T16:43:46Z
FromStats_BitRate : 448000
FromStats_Duration : 01:58:30.304000000
FromStats_FrameCount : 222197
FromStats_StreamSize : 398177024

 

Text
ID : 3
Format : UTF-8
Codec ID : S_TEXT/UTF8
Codec ID/Info : UTF-8 Plain Text
Title : SDH
Language : English
Default : Yes
Forced : No
Statistics Tags Issue : mkvmerge v18.0.0 (‘Apricity’) 64-bit 2018-01-16 23:30:48 / mkvmerge v18.0.0 (‘Apricity’) 64-bit 2018-01-16 23:30:48 / UTC 2018-01-14T16:43:46Z
FromStats_BitRate : 75
FromStats_Duration : 01:56:50.003000000
FromStats_FrameCount : 1966
FromStats_StreamSize : 66088

 

Menu
00:00:00.000 : :Chapter 1
00:05:08.892 : :Chapter 2
00:10:40.056 : :Chapter 3
00:16:01.669 : :Chapter 4
00:20:57.214 : :Chapter 5
00:27:01.161 : :Chapter 6
00:32:53.388 : :Chapter 7
00:37:43.636 : :Chapter 8
00:43:36.155 : :Chapter 9
00:49:28.757 : :Chapter 10
00:55:40.087 : :Chapter 11
01:00:08.480 : :Chapter 12
01:05:07.529 : :Chapter 13
01:10:51.122 : :Chapter 14
01:17:03.369 : :Chapter 15
01:25:01.263 : :Chapter 16
01:35:37.815 : :Chapter 17
01:39:39.015 : :Chapter 18
01:48:05.062 : :Chapter 19
01:52:37.751 : :Chapter 20

004fb3c3 [Movie] Marshall (2017) BDRip MKV H264 AC-3 [5GB]

004fb3c3 [Movie] Marshall (2017) BDRip MKV H264 AC-3 [5GB]

004fb3c3 [Movie] Marshall (2017) BDRip MKV H264 AC-3 [5GB]

004fb3c3 [Movie] Marshall (2017) BDRip MKV H264 AC-3 [5GB]

DOWNLOAD LINKS

[sociallocker id=”149″]

rapidgator_net:

[/sociallocker]

Password: 99hddown.com
Powered by WP Review

Add a Comment

Your email address will not be published. Required fields are marked *