Rapidgator.net
Download!Download Point responsive WP Theme for FREE!

[Movie] Murder on the Orient Express (2017) WEBRip X264 AC3-EVO [4GB]

004fb685 [Movie] Murder on the Orient Express (2017) WEBRip X264 AC3-EVO [4GB]
Murder on the Orient Express (2017)

WEBRip | AVI | 720×304 | XviD@1589 kb/s | English AC3@192 kb/s
Subs: Chinese (Hardcoded) | 2 channels | 1 h 48 min | 1.36 GB
WEBRip 720p | MKV | 1280×536 | AVC@3145 kb/s | English AC3@192 kb/s
Subs: Chinese (Hardcoded) | 2 channels | 1 h 48 min | 2.54 GB
Genre: Crime, Drama, Mystery

IMDB: http://www.imdb.com/title/tt3402236/

When a murder occurs on the train he’s travelling on, celebrated detective Hercule Poirot is recruited to solve the case.

 

WEBRip MediaInfo
General
Murder.on.the.Orient.Express.2017.HC.HDRip.XviD.AC3-EVO.avi
Format : AVI
Format/Info : Audio Video Interleave
Format profile : OpenDML
Format settings : rec
File size : 1.36 GiB
Duration : 1 h 48 min
Overall bit rate : 1 787 kb/s
Writing application : AVI-Mux GUI 1.17.8.3, Feb 16 201019:42:50Video
ID : 0
Format : MPEG-4 Visual
Format profile : Advanced Simple@L5
Format settings, BVOP : 2
Format settings, QPel : No
Format settings, GMC : No warppoints
Format settings, Matrix : Default (H.263)
Muxing mode : Packed bitstream
Codec ID : XVID
Codec ID/Hint : XviD
Duration : 1 h 48 min
Bit rate : 1 589 kb/s
Width : 720 pixels
Height : 304 pixels
Display aspect ratio : 2.35:1
Frame rate : 24.000 FPS
Color space : YUV
Chroma subsampling : 4:2:0
Bit depth : 8 bits
Scan type : Progressive
Compression mode : Lossy
Bits/(Pixel*Frame) : 0.303
Stream size : 1.21 GiB (89%)
Writing library : XviD 66

 

Audio
ID : 1
Format : AC-3
Format/Info : Audio Coding 3
Mode extension : CM (complete main)
Format settings, Endianness : Big
Codec ID : 2000
Duration : 1 h 48 min
Bit rate mode : Constant
Bit rate : 192 kb/s
Channel(s) : 2 channels
Channel positions : Front: L R
Sampling rate : 48.0 kHz
Frame rate : 31.250 FPS (1536 spf)
Bit depth : 16 bits
Compression mode : Lossy
Stream size : 149 MiB (11%)
Alignment : Aligned on interleaves
Interleave, duration : 64 ms (1.54 video frames)
Interleave, preload duration : 192 ms
Title : T2_Audio – English

 

WEBRip 720p MediaInfo
General
Murder.on.the.Orient.Express.2017.720p.HC.HDRip.X264.AC3-EVO.mkv
Format : Matroska
Format version : Version 4 / Version 2
File size : 2.54 GiB
Duration : 1 h 48 min
Overall bit rate : 3 339 kb/s
Movie name : EVO
Encoded date : UTC 2018-01-23 22:25:34
Writing application : mkvmerge v6.7.0 (‘Back to the Ground’) 64bit built on Jan 8 2014 15:10:52
Writing library : libebml v1.3.0 + libmatroska v1.4.1Video
ID : 1
Format : AVC
Format/Info : Advanced Video Codec
Format profile : High@L4.1
Format settings, CABAC : Yes
Format settings, ReFrames : 4 frames
Codec ID : V_MPEG4/ISO/AVC
Duration : 1 h 48 min
Bit rate : 3 145 kb/s
Width : 1 280 pixels
Height : 536 pixels
Display aspect ratio : 2.40:1
Frame rate mode : Constant
Frame rate : 24.000 FPS
Color space : YUV
Chroma subsampling : 4:2:0
Bit depth : 8 bits
Scan type : Progressive
Bits/(Pixel*Frame) : 0.191
Stream size : 2.34 GiB (92%)
Writing library : x264 core 142 r2479 dd79a61
Encoding settings : cabac=1 / ref=1 / deblock=1:0:0 / analyse=0x3:0x113 / me=hex / subme=2 / psy=1 / psy_rd=1.00:0.00 / mixed_ref=0 / me_range=16 / chroma_me=1 / trellis=0 / 8x8dct=1 / cqm=0 / deadzone=21,11 / fast_pskip=1 / chroma_qp_offset=0 / threads=12 / lookahead_threads=4 / sliced_threads=0 / nr=0 / decimate=1 / interlaced=0 / bluray_compat=0 / constrained_intra=0 / bframes=3 / b_pyramid=2 / b_adapt=1 / b_bias=0 / direct=1 / weightb=1 / open_gop=0 / weightp=1 / keyint=240 / keyint_min=24 / scenecut=40 / intra_refresh=0 / rc_lookahead=10 / rc=abr / mbtree=1 / bitrate=3145 / ratetol=1.0 / qcomp=0.60 / qpmin=0 / qpmax=69 / qpstep=4 / vbv_maxrate=62500 / vbv_bufsize=78125 / nal_hrd=none / filler=0 / ip_ratio=1.40 / aq=1:1.00
Default : Yes
Forced : No
Color range : Limited
Color primaries : BT.709
Transfer characteristics : BT.709
Matrix coefficients : BT.709

 

Audio
ID : 2
Format : AC-3
Format/Info : Audio Coding 3
Mode extension : CM (complete main)
Format settings, Endianness : Big
Codec ID : A_AC3
Duration : 1 h 48 min
Bit rate mode : Constant
Bit rate : 192 kb/s
Channel(s) : 2 channels
Channel positions : Front: L R
Sampling rate : 48.0 kHz
Frame rate : 31.250 FPS (1536 spf)
Bit depth : 16 bits
Compression mode : Lossy
Delay relative to video : 75 ms
Stream size : 149 MiB (6%)
Title : Stereo
Language : English
Default : Yes
Forced : No

 

WEBRip Screenshots

004fb685 [Movie] Murder on the Orient Express (2017) WEBRip X264 AC3-EVO [4GB]

 

004fb685 [Movie] Murder on the Orient Express (2017) WEBRip X264 AC3-EVO [4GB]

004fb685 [Movie] Murder on the Orient Express (2017) WEBRip X264 AC3-EVO [4GB]

WEBRip 720p Screenshots

 004fb685 [Movie] Murder on the Orient Express (2017) WEBRip X264 AC3-EVO [4GB]

004fb685 [Movie] Murder on the Orient Express (2017) WEBRip X264 AC3-EVO [4GB]

004fb685 [Movie] Murder on the Orient Express (2017) WEBRip X264 AC3-EVO [4GB]

DOWNLOAD FILES

Password: 99hddown.com

Powered by WP Review
Tags:, , , , , , , , , , , , , , , , , , , , , , , , , , , , , , , , , , , , , , , , , , , , , , , , , , , , , , , , , ,

Add a Comment

Your email address will not be published. Required fields are marked *

Please wait...

Subscribe to our newsletter

Want to be notified when our article is published? Enter your email address and name below to be the first to know.
Advertisment ad adsense adlogger