[Movie] Only the Brave (2017) WEB-DL MKV H264 AC-3 [4.62GB]

004fb3e7 [Movie] Only the Brave (2017) WEB-DL MKV H264 AC-3 [4.62GB]
[Movie] Only the Brave (2017) WEB-DL MKV H264 AC-3 [4.62GB]
WEB-DL | MKV | 1920×798 | English | H264 @ 4454 kbps | AC-3 @ 384 kbps | 2 h 14 min | 4.62 GiB
Genre: Biography, Drama

Members of the Granite Mountain Hotshots battle deadly wildfires to save an Arizona town.

 

loading...
Files
e76dd0ec6b714ee39255a34dada3bf3b.mkv (4.6 GB)

 

Mediainfo
General
Complete name : ./e76dd0ec6b714ee39255a34dada3bf3b.mkv
Format : Matroska
Format version : Version 4 / Version 2
File size : 4.62 GiB
Duration : 2 h 14 min
Overall bit rate : 4 937 kb/s
Encoded date : UTC 2018-01-23 06:47:30
Writing application : mkvmerge v6.7.0 (‘Back to the Ground’) 64bit built on Jan 8 2014 15:10:52
Writing library : libebml v1.3.0 + libmatroska v1.4.1Video
ID : 1
Format : AVC
Format/Info : Advanced Video Codec
Format profile : [email protected]
Format settings : CABAC / 5 Ref Frames
Format settings, CABAC : Yes
Format settings, RefFrames : 5 frames
Codec ID : V_MPEG4/ISO/AVC
Duration : 2 h 14 min
Bit rate : 4 455 kb/s
Width : 1 920 pixels
Height : 798 pixels
Display aspect ratio : 2.40:1
Frame rate mode : Constant
Frame rate : 23.976 FPS
Color space : YUV
Chroma subsampling : 4:2:0
Bit depth : 8 bits
Scan type : Progressive
Bits/(Pixel*Frame) : 0.121
Stream size : 4.17 GiB (90%)
Language : English
Default : Yes
Forced : No
Color range : Limited
Color primaries : BT.709
Transfer characteristics : BT.709
Matrix coefficients : BT.709Audio
ID : 2
Format : AC-3
Format/Info : Audio Coding 3
Format settings, Endianness : Big
Codec ID : A_AC3
Duration : 2 h 14 min
Bit rate mode : Constant
Bit rate : 384 kb/s
Channel(s) : 6 channels
Channel positions : Front: L C R, Side: L R, LFE
Sampling rate : 48.0 kHz
Frame rate : 31.250 FPS (1536 SPF)
Bit depth : 16 bits
Compression mode : Lossy
Stream size : 368 MiB (8%)
Language : English
Service kind : Complete Main
Default : Yes
Forced : No
Menu
00:00:00.000 : en:1
00:06:38.106 : en:2
00:16:13.890 : en:3
00:26:29.297 : en:4
00:34:25.856 : en:5
00:43:53.298 : en:6
00:51:28.378 : en:7
00:59:17.472 : en:8
01:08:26.312 : en:9
01:16:18.367 : en:10
01:24:15.469 : en:11
01:32:50.525 : en:12
01:39:06.817 : en:13
01:45:11.264 : en:14
01:52:53.935 : en:15
02:02:03.776 : en:16
Screenshort

004fb3e7 [Movie] Only the Brave (2017) WEB-DL MKV H264 AC-3 [4.62GB]

004fb3e7 [Movie] Only the Brave (2017) WEB-DL MKV H264 AC-3 [4.62GB]

004fb3e7 [Movie] Only the Brave (2017) WEB-DL MKV H264 AC-3 [4.62GB]

004fb3e7 [Movie] Only the Brave (2017) WEB-DL MKV H264 AC-3 [4.62GB]

004fb3e7 [Movie] Only the Brave (2017) WEB-DL MKV H264 AC-3 [4.62GB]

DOWNLOAD LINKS

[sociallocker id=”149″]

[/sociallocker]

password: 99hddown.com
loading...