Rapidgator.net
Download!Download Point responsive WP Theme for FREE!

[Movie] Science Fiction Volume One: The Osiris Child (2017) BDRip H265 AC-3

004fb431 [Movie] Science Fiction Volume One: The Osiris Child (2017) BDRip H265 AC-3
[Movie] Science Fiction Volume One: The Osiris Child (2017) BDRip H265 AC-3
BDRip | MKV | 1920×720 | English | H265 @ 2831 kbps | AC-3 @ 448 kbps | 1 h 39 min | 2.27 GiB
Genre: Action, Adventure, Drama

Set in the future in a time of interplanetary colonization, an unlikely pair race against an impending global crisis and are confronted by the monsters that live inside us all.

 

Mediainfo
General
Complete name : ./f574c8591e4f428e907c68d8120a71e7.mkv
Format : Matroska
Format version : Version 2
File size : 2.27 GiB
Duration : 1 h 39 min
Overall bit rate : 3 282 kb/s
Encoded date : UTC 2018-01-18 01:36:27
Writing application : DVDFab 10.0.7.7
Writing library : libebml v1.3.4 + libmatroska v1.4.5Video
ID : 1
Format : HEVC
Format/Info : High Efficiency Video Coding
Format profile : Main 10@L4@Main
Codec ID : V_MPEGH/ISO/HEVC
Duration : 1 h 39 min
Bit rate : 2 832 kb/s
Width : 1 920 pixels
Height : 720 pixels
Display aspect ratio : 2.667
Frame rate mode : Constant
Frame rate : 23.976 (24000/1001) FPS
Color space : YUV
Chroma subsampling : 4:2:0
Bit depth : 10 bits
Bits/(Pixel*Frame) : 0.085
Stream size : 1.96 GiB (86%)
Default : Yes
Forced : No
Color range : Limited
Color primaries : BT.709
Transfer characteristics : BT.709
Matrix coefficients : BT.709

 

Audio
ID : 2
Format : AC-3
Format/Info : Audio Coding 3
Format settings, Endianness : Big
Codec ID : A_AC3
Duration : 1 h 39 min
Bit rate mode : Constant
Bit rate : 448 kb/s
Channel(s) : 6 channels
Channel positions : Front: L C R, Side: L R, LFE
Sampling rate : 48.0 kHz
Frame rate : 31.250 FPS (1536 SPF)
Bit depth : 16 bits
Compression mode : Lossy
Stream size : 317 MiB (14%)
Language : English
Service kind : Complete Main
Default : Yes
Forced : No

 

Menu
00:00:00.000 : en:(01)00:00:00:000
00:11:08.376 : en:(02)00:11:08:376
00:17:56.075 : en:(03)00:17:56:075
00:25:46.795 : en:(04)00:25:46:795
00:39:27.782 : en:(05)00:39:27:782
00:48:29.489 : en:(06)00:48:29:489
00:54:41.903 : en:(07)00:54:41:903
01:02:13.020 : en:(08)01:02:13:020
01:09:45.723 : en:(09)01:09:45:723
01:16:54.901 : en:(10)01:16:54:901
01:24:34.903 : en:(11)01:24:34:903
01:33:03.703 : en:(12)01:33:03:703

Screenshort

004fb431 [Movie] Science Fiction Volume One: The Osiris Child (2017) BDRip H265 AC-3

004fb431 [Movie] Science Fiction Volume One: The Osiris Child (2017) BDRip H265 AC-3

004fb431 [Movie] Science Fiction Volume One: The Osiris Child (2017) BDRip H265 AC-3

004fb431 [Movie] Science Fiction Volume One: The Osiris Child (2017) BDRip H265 AC-3

004fb431 [Movie] Science Fiction Volume One: The Osiris Child (2017) BDRip H265 AC-3

 

DOWNLOAD LINKS

[sociallocker id=”149″]

rapidgator_net: http://safelinking.net/2iaCooi

nitroflare_com: http://safelinking.net/rUNbiuA

[/sociallocker]

password: 99hddown.com

Add a Comment

Your email address will not be published. Required fields are marked *