[Movie] The Stray 2017 DVDRip AVI AC3 [1.36 GB]

004ff8a1 [Movie] The Stray 2017 DVDRip AVI AC3 [1.36 GB]
[Movie] The Stray 2017 DVDRip AVI AC3 [1.36 GB]

DVDRip | AVI | 720×384 | [email protected] kb/s | English [email protected] kb/s | 6 channels | 1 h 28 min | 1.36 GB
Genre: Drama, Family

A young father takes his nine year old son, the family dog, and two of his son’s friends backpacking in the mountains of Colorado only for all five of them to be struck by lightning.

loading...

 

DVDRip MediaInfo
General
The.Stray.2017.DVDRip.XviD.AC3-EVO.avi
Format : AVI
Format/Info : Audio Video Interleave
File size : 1.36 GiB
Duration : 1 h 28 min
Overall bit rate : 2 214 kb/sVideo
ID : 0
Format : AVC
Format/Info : Advanced Video Codec
Format profile : [email protected]
Format settings, CABAC : Yes
Format settings, ReFrames : 2 frames
Codec ID : H264
Duration : 1 h 28 min
Source duration : 1 h 28 min
Bit rate : 1 772 kb/s
Width : 720 pixels
Height : 384 pixels
Display aspect ratio : 1.85:1
Frame rate : 23.976 (24000/1001) FPS
Color space : YUV
Chroma subsampling : 4:2:0
Bit depth : 8 bits
Scan type : Progressive
Bits/(Pixel*Frame) : 0.267
Stream size : 1.08 GiB (79%)
Writing library : x264 core 65
Encoding settings : cabac=1 / ref=2 / deblock=1:0:0 / analyse=0x1:0x111 / me=umh / subme=6 / psy_rd=1.0:0.0 / mixed_ref=0 / me_range=16 / chroma_me=1 / trellis=0 / 8x8dct=0 / cqm=0 / deadzone=21,11 / chroma_qp_offset=-2 / threads=6 / nr=0 / decimate=1 / mbaff=0 / bframes=2 / b_pyramid=0 / b_adapt=1 / b_bias=0 / direct=1 / wpredb=0 / keyint=240 / keyint_min=24 / scenecut=40(pre) / rc=abr / bitrate=1772 / ratetol=1.0 / qcomp=0.60 / qpmin=10 / qpmax=51 / qpstep=4 / ip_ratio=1.40 / pb_ratio=1.30 / aq=1:1.00
Color range : Limited
Color primaries : BT.601 NTSC
Transfer characteristics : BT.709
Matrix coefficients : BT.601

 

Audio
ID : 1
Format : AC-3
Format/Info : Audio Coding 3
Mode extension : CM (complete main)
Format settings, Endianness : Big
Codec ID : 2000
Duration : 1 h 28 min
Bit rate mode : Constant
Bit rate : 448 kb/s
Channel(s) : 6 channels
Channel positions : Front: L C R, Side: L R, LFE
Sampling rate : 48.0 kHz
Frame rate : 31.250 FPS (1536 spf)
Bit depth : 16 bits
Compression mode : Lossy
Stream size : 282 MiB (20%)
Alignment : Aligned on interleaves
Interleave, duration : 32 ms (0.77 video frame)
Interleave, preload duration : 1056 ms

 

DVDRip Screenshots

004ff8a1 [Movie] The Stray 2017 DVDRip AVI AC3 [1.36 GB]

004ff8a1 [Movie] The Stray 2017 DVDRip AVI AC3 [1.36 GB]

004ff8a1 [Movie] The Stray 2017 DVDRip AVI AC3 [1.36 GB]


DOWNLOAD LINKS

rapidgator_net: http://safelinking.net/G7XjZmn

nitroflare_com: http://safelinking.net/pGfb4xn

password: 99hddown.com

loading...