Rapidgator.net
Download!Download Point responsive WP Theme for FREE!

[Movies] Woody Woodpecker (2017) HDRip 1080p AC3 [5GB]

004fb796 [Movies] Woody Woodpecker (2017) HDRip 1080p AC3 [5GB]

[Movies] Woody Woodpecker (2017) HDRip 1080p AC3 [5GB]

HDRip | AVI | 720×400 | XviD@1476 kb/s | English AC3@384 kb/s
6 channels | 1 h 31 min | 1.20 GB
WEB-DL 1080p | MKV | 1916×1072 | AVC@5024 kb/s | English AC3@384 kb/s
6 channels | 1 h 31 min | 3.53 GB
Genre: Animation, Comedy, Family

IMDB: http://www.imdb.com/title/tt2114504/

The hyperactive red-headed bird enters a turf war with a big city lawyer wanting to tear down his home in an effort to build a house to flip.

[toggle title=”HDRip MediaInfo”]
General
Woody.Woodpecker.2017.V2.HDRip.XviD.AC3-EVO.avi
Format : AVI
Format/Info : Audio Video Interleave
File size : 1.20 GiB
Duration : 1 h 31 min
Overall bit rate : 1 869 kb/s
Writing library : VirtualDub build 32593/releaseVideo
ID : 0
Format : MPEG-4 Visual
Format profile : Advanced Simple@L5
Format settings, BVOP : 2
Format settings, QPel : No
Format settings, GMC : No warppoints
Format settings, Matrix : Default (H.263)
Muxing mode : Packed bitstream
Codec ID : XVID
Codec ID/Hint : XviD
Duration : 1 h 31 min
Bit rate : 1 476 kb/s
Width : 720 pixels
Height : 400 pixels
Display aspect ratio : 16:9
Frame rate : 23.976 (24000/1001) FPS
Color space : YUV
Chroma subsampling : 4:2:0
Bit depth : 8 bits
Scan type : Progressive
Compression mode : Lossy
Bits/(Pixel*Frame) : 0.214
Stream size : 966 MiB (79%)
Writing library : XviD 66
Audio
ID : 1
Format : AC-3
Format/Info : Audio Coding 3
Mode extension : CM (complete main)
Format settings, Endianness : Big
Codec ID : 2000
Duration : 1 h 31 min
Bit rate mode : Constant
Bit rate : 384 kb/s
Channel(s) : 6 channels
Channel positions : Front: L C R, Side: L R, LFE
Sampling rate : 48.0 kHz
Frame rate : 31.250 FPS (1536 spf)
Bit depth : 16 bits
Compression mode : Lossy
Stream size : 251 MiB (21%)
Alignment : Aligned on interleaves
Interleave, duration : 42 ms (1.00 video frame)
Interleave, preload duration : 512 ms

[/toggle]

 

[toggle title=”WEB-DL 1080p MediaInfo”]

General
Woody.Woodpecker.2017.1080p.WEB-DL.DD5.1.x264-ZMG.mkv
Format : Matroska
Format version : Version 4 / Version 2
File size : 3.53 GiB
Duration : 1 h 31 min
Overall bit rate : 5 518 kb/s
Encoded date : UTC 2018-01-24 00:57:59
Writing application : mkvmerge v6.4.1 (‘Omega Point’) built on Sep 16 2013 22:05:10
Writing library : libebml v1.3.0 + libmatroska v1.4.1Video
ID : 1
Format : AVC
Format/Info : Advanced Video Codec
Format profile : High@L4
Format settings, CABAC : Yes
Format settings, ReFrames : 4 frames
Codec ID : V_MPEG4/ISO/AVC
Duration : 1 h 31 min
Bit rate : 5 024 kb/s
Width : 1 916 pixels
Height : 1 072 pixels
Display aspect ratio : 16:9
Frame rate mode : Constant
Frame rate : 24.000 FPS
Color space : YUV
Chroma subsampling : 4:2:0
Bit depth : 8 bits
Scan type : Progressive
Bits/(Pixel*Frame) : 0.102
Stream size : 3.21 GiB (91%)
Language : English
Default : Yes
Forced : No
Color range : Limited
Color primaries : BT.709
Transfer characteristics : BT.709
Matrix coefficients : BT.709
Audio
ID : 2
Format : AC-3
Format/Info : Audio Coding 3
Mode extension : CM (complete main)
Format settings, Endianness : Big
Codec ID : A_AC3
Duration : 1 h 31 min
Bit rate mode : Constant
Bit rate : 384 kb/s
Channel(s) : 6 channels
Channel positions : Front: L C R, Side: L R, LFE
Sampling rate : 48.0 kHz
Frame rate : 31.250 FPS (1536 spf)
Bit depth : 16 bits
Compression mode : Lossy
Stream size : 251 MiB (7%)
Language : English
Default : Yes
Forced : No

[/toggle]

 

[toggle title=”Menu”]
00:00:00.000 : en:1
00:03:12.275 : en:2
00:08:37.933 : en:3
00:13:46.241 : en:4
00:19:51.439 : en:5
00:23:39.208 : en:6
00:29:33.854 : en:7
00:34:18.638 : en:8
00:37:17.817 : en:9
00:40:51.989 : en:10
00:45:25.929 : en:11
00:49:33.301 : en:12
00:52:52.083 : en:13
00:55:44.672 : en:14
01:00:03.347 : en:15
01:05:55.407 : en:16
01:10:28.304 : en:17
01:15:17.634 : en:18
01:17:07.368 : en:19
01:19:54.326 : en:20

[/toggle]

HDRip Screenshots

004fb796 [Movies] Woody Woodpecker (2017) HDRip 1080p AC3 [5GB]

004fb796 [Movies] Woody Woodpecker (2017) HDRip 1080p AC3 [5GB]
004fb796 [Movies] Woody Woodpecker (2017) HDRip 1080p AC3 [5GB]
004fb796 [Movies] Woody Woodpecker (2017) HDRip 1080p AC3 [5GB]

WEB-DL 1080p Screenshots

004fb796 [Movies] Woody Woodpecker (2017) HDRip 1080p AC3 [5GB]

 

004fb796 [Movies] Woody Woodpecker (2017) HDRip 1080p AC3 [5GB]

004fb796 [Movies] Woody Woodpecker (2017) HDRip 1080p AC3 [5GB]

004fb796 [Movies] Woody Woodpecker (2017) HDRip 1080p AC3 [5GB]
DOWNLOAD LINKS
rapidgator_net:
nitroflare_com:
Password: 99hddown.com
 

 

Powered by WP Review

Add a Comment

Your email address will not be published. Required fields are marked *