[Movies] Suburbicon 2017 READNFO 1080p WEB-DL H264 AC3-EVO

004fb39d [Movies] Suburbicon 2017 READNFO 1080p WEB-DL H264 AC3-EVO
Suburbicon 2017 READNFO 1080p WEB-DL H264 AC3-EVO
WEB-DL | 1080p | MKV | 1920×804 | English | H264 @ 4512 kbps | AC-3 @ 192 kbps | 1 h 44 min | 3.49 GiB
Genre: Crime, Drama, Mystery

A crime mystery set in the quiet family town of Suburbicon during the 1950s, where the best and worst of humanity is hilariously reflected through the deeds of seemingly ordinary people. When a home invasion turns deadly, a picture-perfect family turns to blackmail, revenge, and murder.

Mediainfo
General
Unique ID : 183408513341888753357673931916156272091 (0x89FB31DDC30FB01BBF8B6D3FD45EFDDB)
Complete name : ./Suburbicon.2017.READNFO.1080p.WEB-DL.H264.AC3-EVO/Suburbicon.2017.READNFO.1080p.WEB-DL.H264.AC3-EVO.mkv
Format : Matroska
Format version : Version 4 / Version 2
File size : 3.49 GiB
Duration : 1 h 44 min
Overall bit rate : 4 800 kb/s
Movie name : Suburbicon 2017 Readnfo 1080p Web Dl H264
Encoded date : UTC 2018-01-22 19:45:58
Writing application : mkvmerge v6.7.0 (‘Back to the Ground’) 64bit built on Jan 8 2014 15:10:52
Writing library : libebml v1.3.0 + libmatroska v1.4.1
Video
ID : 2
Format : AVC
Format/Info : Advanced Video Codec
Format profile : [email protected]
Format settings : CABAC / 5 Ref Frames
Format settings, CABAC : Yes
Format settings, RefFrames : 5 frames
Codec ID : V_MPEG4/ISO/AVC
Duration : 1 h 44 min
Bit rate : 4 513 kb/s
Width : 1 920 pixels
Height : 804 pixels
Display aspect ratio : 2.40:1
Frame rate mode : Constant
Frame rate : 24.000 FPS
Color space : YUV
Chroma subsampling : 4:2:0
Bit depth : 8 bits
Scan type : Progressive
Bits/(Pixel*Frame) : 0.122
Stream size : 3.28 GiB (94%)
Language : English
Default : Yes
Forced : No
Color range : Limited
Color primaries : BT.709
Transfer characteristics : BT.709
Matrix coefficients : BT.709
Audio
ID : 1
Format : AC-3
Format/Info : Audio Coding 3
Format settings, Endianness : Big
Codec ID : A_AC3
Duration : 1 h 44 min
Bit rate mode : Constant
Bit rate : 192 kb/s
Channel(s) : 2 channels
Channel positions : Front: L R
Sampling rate : 48.0 kHz
Frame rate : 31.250 FPS (1536 SPF)
Bit depth : 16 bits
Compression mode : Lossy
Stream size : 143 MiB (4%)
Language : English
Service kind : Complete Main
Default : Yes
Forced : No

 

loading...

Menu
00:00:00.000 : en: 1
00:06:24.208 : en: 2
00:11:28.124 : en: 3
00:18:03.707 : en: 4
00:23:21.998 : en: 5
00:29:11.081 : en: 6
00:34:57.706 : en: 7
00:41:44.039 : en: 8
00:48:28.580 : en: 9
00:56:09.996 : en: 10
01:00:47.287 : en: 11
01:07:32.745 : en: 12
01:13:46.661 : en: 13
01:18:53.036 : en: 14
01:24:56.077 : en: 15
01:33:19.202 : en: 16

Screenshort

004fb39d [Movies] Suburbicon 2017 READNFO 1080p WEB-DL H264 AC3-EVO

004fb39d [Movies] Suburbicon 2017 READNFO 1080p WEB-DL H264 AC3-EVO

004fb39d [Movies] Suburbicon 2017 READNFO 1080p WEB-DL H264 AC3-EVO

004fb39d [Movies] Suburbicon 2017 READNFO 1080p WEB-DL H264 AC3-EVO

004fb39d [Movies] Suburbicon 2017 READNFO 1080p WEB-DL H264 AC3-EVO

 

DOWNLOAD LINKS:

[sociallocker id=”149″]

rapidgator_net: http://safelinking.net/YlT7p5Z

nitroflare_com: http://safelinking.net/ImuS9yS

[/sociallocker]

Password: 99hddown.com

loading...

Powered by WP Review