Rapidgator.net
Download!Download Point responsive WP Theme for FREE!

[Download] Tragedy.Girls.2017.1080p.WEB-DL.DD5.1.H264-FGT [5GB]

004fb1b1 [Download] Tragedy.Girls.2017.1080p.WEB-DL.DD5.1.H264-FGT [5GB]
[Download] Tragedy.Girls.2017.1080p.WEB-DL.DD5.1.H264-FGT [5GB]

HDRip | AVI | 720×304 | XviD@1628 kb/s | English AC3@384 kb/s
6 channels | 1 h 38 min | 1.39 GB
WEB-DL 1080p | MKV | 1920×802 | AVC@4525 kb/s | English AC3@384 kb/s
6 channels | 1 h 38 min | 3.37 GB
Genre: Comedy, Horror

IMDBhttp://www.imdb.com/title/tt3859272/ – 8 wins & 3 nominations.

A twist on the slasher genre, following two death-obsessed teenage girls who use their online show about real-life tragedies to send their small mid-western town into a frenzy and cement their legacy as modern horror legends.

 

HDRip MediaInfo
General
Tragedy.Girls.2017.HDRip.XviD.AC3-EVO.avi
Format : AVI
Format/Info : Audio Video Interleave
File size : 1.39 GiB
Duration : 1 h 38 min
Overall bit rate : 2 022 kb/s
Writing library : VirtualDub build 32593/releaseVideo
ID : 0
Format : MPEG-4 Visual
Format profile : Advanced Simple@L5
Format settings, BVOP : 2
Format settings, QPel : No
Format settings, GMC : No warppoints
Format settings, Matrix : Default (H.263)
Muxing mode : Packed bitstream
Codec ID : XVID
Codec ID/Hint : XviD
Duration : 1 h 38 min
Bit rate : 1 628 kb/s
Width : 720 pixels
Height : 304 pixels
Display aspect ratio : 2.35:1
Frame rate : 23.976 (24000/1001) FPS
Color space : YUV
Chroma subsampling : 4:2:0
Bit depth : 8 bits
Scan type : Progressive
Compression mode : Lossy
Bits/(Pixel*Frame) : 0.310
Stream size : 1.12 GiB (81%)
Writing library : XviD 66

 

Audio
ID : 1
Format : AC-3
Format/Info : Audio Coding 3
Mode extension : CM (complete main)
Format settings, Endianness : Big
Codec ID : 2000
Duration : 1 h 38 min
Bit rate mode : Constant
Bit rate : 384 kb/s
Channel(s) : 6 channels
Channel positions : Front: L C R, Side: L R, LFE
Sampling rate : 48.0 kHz
Frame rate : 31.250 FPS (1536 spf)
Bit depth : 16 bits
Compression mode : Lossy
Stream size : 270 MiB (19%)
Alignment : Aligned on interleaves
Interleave, duration : 42 ms (1.00 video frame)
Interleave, preload duration : 512 ms

 

WEB-DL 1080p MediaInfo
General
Tragedy.Girls.2017.1080p.WEB-DL.DD5.1.H264-FGT.mkv
Format : Matroska
Format version : Version 4 / Version 2
File size : 3.37 GiB
Duration : 1 h 38 min
Overall bit rate : 4 911 kb/s
Movie name : Tragedy.Girls.2017.1080p.WEB-DL.DD5.1.H264-FGT
Encoded date : UTC 2018-01-23 13:13:27
Writing application : mkvmerge v20.0.0 (‘I Am The Sun’) 64-bit
Writing library : libebml v1.3.5 + libmatroska v1.4.8
Cover : Yes
Attachments : small_cover_land.jpg / cover.jpg / cover_land.jpg / small_cover.jpgVideo
ID : 1
Format : AVC
Format/Info : Advanced Video Codec
Format profile : High@L4
Format settings, CABAC : Yes
Format settings, ReFrames : 5 frames
Codec ID : V_MPEG4/ISO/AVC
Duration : 1 h 38 min
Bit rate : 4 525 kb/s
Width : 1 920 pixels
Height : 802 pixels
Display aspect ratio : 2.40:1
Frame rate mode : Constant
Frame rate : 23.976 (24000/1001) FPS
Color space : YUV
Chroma subsampling : 4:2:0
Bit depth : 8 bits
Scan type : Progressive
Bits/(Pixel*Frame) : 0.123
Stream size : 3.11 GiB (92%)
Title : Tragedy.Girls.2017.1080p.WEB-DL.DD5.1.H264-FGT
Language : English
Default : Yes
Forced : No
Color range : Limited
Color primaries : BT.709
Transfer characteristics : BT.709
Matrix coefficients : BT.709

 

Audio
ID : 2
Format : AC-3
Format/Info : Audio Coding 3
Mode extension : CM (complete main)
Format settings, Endianness : Big
Codec ID : A_AC3
Duration : 1 h 38 min
Bit rate mode : Constant
Bit rate : 384 kb/s
Channel(s) : 6 channels
Channel positions : Front: L C R, Side: L R, LFE
Sampling rate : 48.0 kHz
Frame rate : 31.250 FPS (1536 spf)
Bit depth : 16 bits
Compression mode : Lossy
Delay relative to video : -42 ms
Stream size : 270 MiB (8%)
Title : Tragedy.Girls.2017.1080p.WEB-DL.DD5.1.H264-FGT
Language : English
Default : Yes
Forced : No

 

Menu
00:00:00.000 : en:1
00:12:08.436 : en:2
00:24:34.222 : en:3
00:36:51.334 : en:4
00:49:08.446 : en:5
01:01:25.558 : en:6
01:13:42.670 : en:7
01:25:59.782 : en:8

 

HDRip Screenshots

004fb1b1 [Download] Tragedy.Girls.2017.1080p.WEB-DL.DD5.1.H264-FGT [5GB]

004fb1b1 [Download] Tragedy.Girls.2017.1080p.WEB-DL.DD5.1.H264-FGT [5GB]

004fb1b1 [Download] Tragedy.Girls.2017.1080p.WEB-DL.DD5.1.H264-FGT [5GB]

 

WEB-DL 1080p Screenshots

004fb1b1 [Download] Tragedy.Girls.2017.1080p.WEB-DL.DD5.1.H264-FGT [5GB]

004fb1b1 [Download] Tragedy.Girls.2017.1080p.WEB-DL.DD5.1.H264-FGT [5GB]

004fb1b1 [Download] Tragedy.Girls.2017.1080p.WEB-DL.DD5.1.H264-FGT [5GB]

DOWNLOAD FILES

password: 99hddown.com

Powered by WP Review

Add a Comment

Your email address will not be published. Required fields are marked *

Please wait...

Subscribe to our newsletter

Want to be notified when our article is published? Enter your email address and name below to be the first to know.
Advertisment ad adsense adlogger